#TITLE:The Poke'mon Thong Song;
#SUBTITLE:Cards, TV & Underwear?;
#ARTIST:Unknown;
#TITLETRANSLIT:;
#SUBTITLETRANSLIT:;
#ARTISTTRANSLIT:;
#CREDIT:;
#BANNER:Banner.jpg;
#BACKGROUND:PTS.jpg;
#LYRICSPATH:;
#CDTITLE:;
#MUSIC:PTS.MP3;
#OFFSET:0.000;
#SAMPLESTART:49.293;
#SAMPLELENGTH:12.000;
#SELECTABLE:YES;
#BPMS:0.000=121.720;
#STOPS:;
#BGCHANGES:39.500=jtv19.jpg=1.000=0=0=1,
40.000=artpikachu.gif=1.000=0=0=1,
40.250=GOIM0001.gif=1.000=0=0=1,
40.500=pokemon0909.jpg=1.000=0=0=1,
40.688=snap0038.bmp=1.000=0=0=1,
41.000=02fondodeescritoriopokemon_grande.jpg=1.000=0=0=1,
44.500=07Grand.jpg=1.000=0=0=1,
45.000=577fr01.jpg=1.000=0=0=1,
48.000=aqua_wp_800x600.jpg=1.000=0=0=1,
49.000=artpikachu.gif=1.000=0=0=1,
52.500=jtv19.jpg=1.000=0=0=1,
53.000=bt-00895.jpg=1.000=0=0=1,
56.000=jugdit.jpg=1.000=0=0=1,
57.000=knutsel_pikachu_mal.jpg=1.000=0=0=1,
61.000=pikathunder.gif=1.000=0=0=1,
64.000=pokefeest.gif=1.000=0=0=1,
65.000=POKEMON.jpg=1.000=0=0=1,
69.000=pokemon0909.jpg=1.000=0=0=1,
73.000=pokemon1.jpg=1.000=0=0=1,
77.000=pokemon54345.jpg=1.000=0=0=1,
80.000=pokemon7568798.jpg=1.000=0=0=1,
81.000=pokemon_new.jpg=1.000=0=0=1,
85.000=SGT.bmp=1.000=0=0=1,
88.000=snap0034.bmp=1.000=0=0=1,
89.000=snap0038.bmp=1.000=0=0=1,
93.000=02fondodeescritoriopokemon_grande.jpg=1.000=0=0=1,
97.000=bt-00895.jpg=1.000=0=0=1,
105.000=GOIM0001.gif=1.000=0=0=1,
121.000=pikathunder.gif=1.000=0=0=1,
128.000=artpikachu.gif=1.000=0=0=1,
129.000=pokefeest.gif=1.000=0=0=1,
137.000=TR.avi=0.800=1=0=1,
317.500=PTS.jpg=1.000=0=0=1,
99999=-nosongbg-=1.000=0=0=0 // don't automatically add -songbackground-
;
// cache tags:
#FIRSTBEAT:9.000;
#LASTBEAT:317.500;
#SONGFILENAME:Songs/Music V.I.P ^_^/The Pokemon Thong Song/PTS.sm;
#HASMUSIC:1;
#HASBANNER:1;
#MUSICLENGTH:158.074;
// end cache tags

//---------------dance-single - ----------------
#NOTES:
     dance-single:
     :
     Hard:
     8:
     0.603,0.842,0.867,0.139,0.383,508.000,137.000,22.000,0.000,0.000:
0000
0000
0000
0000
,
0000
0000
0000
0000
,
0000
0000
1000
0100
0010
0001
0200
0000
,
0000
0000
0000
0300
0000
0001
1000
0010
,
0100
0001
0010
1000
0100
0020
0000
0000
,
0000
0030
0000
0000
,
0000
0000
1000
0100
0010
0001
0020
0000
,
0000
0000
0000
0030
0000
0000
1000
0100
,
0010
0000
0010
0000
0100
0000
1000
0000
1000
0000
1000
0001
1000
0001
1000
0001
,
0000
0000
0000
0000
,
0000
0000
0000
0000
0010
0000
0000
0010
1000
0000
0000
1000
0001
0000
0000
0001
,
0100
0000
0000
0100
1000
0000
0000
1000
0010
0000
0000
0010
0100
0000
0000
0100
,
0001
0000
0000
0001
1000
0000
0000
1000
0100
0000
0000
0100
1000
0000
0000
1000
,
0100
0000
0000
0100
0001
0000
0000
0001
0010
0000
0000
0010
0100
0000
0000
0100
,
1000
1000
0101
0000
1010
0000
0101
1010
,
0101
0000
0000
0000
0001
0000
0010
0000
0100
0000
0001
0000
1000
0100
1000
0000
,
0001
0000
0000
0000
0001
0010
0100
1000
0110
0000
0100
0000
1000
0100
0010
0001
,
1000
0100
1000
0010
0100
0001
0010
0100
0001
1000
0010
1000
0001
0100
0010
0000
,
0011
0000
1010
0000
1100
0000
0000
0000
1000
0100
1000
0000
1000
0100
1000
0000
,
1000
0100
1000
0000
0001
0100
0001
0000
0001
0100
0001
0000
0001
0100
0001
0000
,
0001
0100
0001
0000
0010
0100
0010
0000
0010
0100
0010
0000
0010
0100
0010
0000
,
0010
0100
0010
0000
0000
0000
1000
0100
0010
0001
0010
0100
0000
0000
0000
0000
,
1010
0000
1100
0000
1001
0000
0000
0000
0110
0000
0000
0000
1001
0000
0000
0010
,
1001
0000
0000
0000
1010
0000
0000
0000
1100
0000
0000
0000
1010
0000
0000
0100
,
1010
0000
1010
0110
0011
0000
0000
0000
,
0000
0000
0000
0000
2020
0000
0000
3030
0022
0000
0000
0033
0220
0000
0000
0330
,
2200
0000
0000
3300
0002
0000
0000
0000
0010
0000
2000
0000
0000
0000
0000
0000
,
0000
3003
1010
0000
1100
0110
0011
1100
,
0110
1010
0000
0000
,
0000
1100
0110
0011
0110
1100
1001
0000
,
1010
0202
0000
0000
,
0000
0303
2020
0000
0000
0000
0000
3030
,
0200
0000
0020
0000
0000
0000
0000
0330
,
0000
0000
0000
0000
0001
0000
0000
0001
1000
0000
0000
1000
0100
0000
0000
0100
,
0010
0000
0000
0000
1010
0000
0000
0100
1010
0000
0000
0000
0101
0000
0000
0010
,
0101
0000
0000
0000
0110
0000
0000
0010
0110
0000
0000
0000
1010
0000
0000
0001
,
1010
0000
0000
0000
1001
0010
1001
0000
0110
0000
0000
0000
1010
0000
0000
0000
,
1100
0000
0000
0000
0110
0000
0000
0000
0011
0000
0000
0000
0011
0000
0000
1100
,
0011
0000
0000
0000
1000
0000
0000
1000
0100
0000
0000
0100
0010
0001
0010
0100
,
1000
0000
0000
0000
1000
0000
0000
1000
0100
0000
0000
0100
0001
0010
0100
0001
,
0010
0000
0000
0000
1010
0000
0000
0100
1010
0000
0000
0000
0101
0000
0000
0010
,
0101
0000
0000
0000
0110
0000
0000
0010
0110
0000
0000
0000
0110
0000
0000
0000
,
1000
0010
0100
0001
0010
0000
0000
0000
0020
0000
0000
0000
1000
0000
0000
0000
,
0130
2000
0100
0001
,
3100
0020
0100
0001
,
0130
0000
0000
0000
0001
0010
0100
0001
0010
0100
1000
0100
0010
0001
0010
0000
,
1010
1100
1000
0010
0100
0001
0010
0100
,
0001
0100
0010
0001
0100
0001
0100
0010
,
0100
0001
0100
0010
0100
0001
0100
0010
,
1000
1001
0110
1010
,
0101
0000
0000
0000
1001
0000
0000
0110
1001
0000
0000
0000
1010
0000
0000
1100
,
1010
0000
0000
0000
1100
0000
0000
0011
1001
0000
0000
0000
1010
0000
0000
0110
,
0101
0000
0001
0010
0100
1000
0100
0000
,
0000
0000
0000
0000
0000
0000
1000
0000
0000
0000
0000
0000
0010
0000
0000
0000
0000
0000
0000
0000
0000
0000
0000
0000
1000
0000
0000
0100
0000
0000
0000
0000
1000
0000
0000
0000
1001
0000
0000
0000
0000
0000
0000
0000
0000
0000
0000
0000
,
1000
0100
0001
0100
0010
1000
0100
0010
,
0001
0100
0010
1000
0010
0100
0001
0010
,
0100
0000
1000
0100
0010
0001
0100
0010
,
1000
0100
0001
0010
0100
1000
0100
0010
,
1000
0000
0000
0000
1000
0100
0010
0000
1000
0100
0010
0000
1000
0100
0010
0000
,
1010
0000
0000
0000
0011
0000
0000
0000
0001
0010
0100
0000
0001
0010
0100
0000
,
0001
0010
0100
0000
0101
0000
0000
0000
0110
0000
0000
0000
1010
0000
0000
0100
,
1010
0000
0000
0000
1000
0001
1000
0100
0010
0001
0010
0100
1000
0100
0000
0000
,
0011
0000
0000
0000
1010
0000
0000
0000
1010
0000
0000
0000
1010
0000
0000
0100
,
1010
0000
0000
0000
0101
0000
0000
0010
0101
0000
0101
0000
0101
0000
0000
0010
,
0101
0000
1010
1100
0011
0110
1001
1010
,
0101
1010
0110
1001
1010
0101
1010
1100
,
1010
0101
1010
0101
1010
0101
1010
0101
,
1001
0110
1001
0110
1001
0110
1001
0110
,
1010
0000
1000
0100
0010
0001
0010
0100
,
1000
0010
0100
0001
0010
0100
1000
0100
,
0010
0000
0000
0000
0010
0000
0000
0010
1000
0000
0000
1000
0100
0000
0000
0100
,
0010
0000
0000
0010
0001
0000
0000
0001
1000
0000
0000
1000
0100
0000
0000
0100
,
0010
0000
0000
0010
0100
0000
0000
0100
1000
0000
0000
1000
0001
0000
0000
0001
,
0100
0000
0000
0100
0010
0000
0000
0010
1000
0000
0000
1000
0001
0000
0000
0001
,
0100
0000
0000
0100
0010
0000
0000
0000
0010
0000
0000
0000
1000
0000
0000
0000
,
0000
0000
0000
0000
1000
0100
0010
0001
1000
0100
0010
0001
1000
0100
0010
0001
,
1000
0100
0010
0001
1000
0100
0010
0001
1000
0000
0000
0000
0000
0000
0000
0000
,
0000
1010
0000
0101
0000
0110
0000
0000
,
0000
0000
0000
0010
1001
0000
0000
0000
0000
0000
0000
0000
0000
0000
0000
0000
;

//---------------dance-single - ----------------
#NOTES:
     dance-single:
     :
     Challenge:
     8:
     0.571,0.793,0.715,0.272,0.357,476.000,113.000,43.000,0.000,0.000:
0000
0000
0000
0000
,
0000
0000
0000
0000
,
0000
0000
1000
0010
0001
0100
0020
0000
,
0000
0000
0000
0030
0000
1000
0010
0100
,
0001
0010
0001
0000
0010
0100
2000
0000
,
0000
0000
0000
0000
,
0000
0000
3100
0001
0010
1000
0200
0000
,
0000
0000
0000
0000
0300
0010
1000
0100
,
0001
1000
0100
0000
1000
0020
0000
0000
,
0000
0000
0030
0000
0000
0000
0000
1000
,
0010
0000
0000
0000
0001
0000
0000
0000
0100
0000
0000
0010
0000
0000
0000
0000
1000
0000
0000
0000
0000
0000
0000
0000
0100
0000
0000
0000
0000
0000
0000
0000
1000
0000
0000
0000
0000
0000
0000
0000
0001
0000
0000
0000
0000
0000
0000
0000
0100
0000
0000
0000
0000
0000
0000
0000
0001
0000
0000
0000
1000
0000
0000
0000
,
0000
0000
0100
0000
1000
0010
0100
0000
0001
0000
1000
0000
0010
0000
1000
0100
,
0000
0000
0000
0000
0010
1000
0010
0000
0001
0000
0100
0000
0010
0000
0100
1000
,
0000
0000
0100
0000
0010
0001
0010
0001
1000
0000
0000
0000
1010
0000
0101
1010
,
0000
0000
1000
0000
0000
0000
0001
0010
0100
0000
1000
0100
0010
0000
0001
0010
,
0000
0000
0000
0000
0001
0000
1000
0100
1000
0000
0001
0010
0001
0000
0100
0010
,
0000
0000
0000
0000
0010
1000
0010
0100
0001
0000
1000
0010
0100
0000
0010
0001
,
0000
0000
0010
1000
0010
0001
0100
1000
0000
0100
0000
1000
0000
0100
0000
0000
,
1000
0000
0100
0000
0010
0000
0001
0100
1000
0000
0000
0000
1000
0000
0000
0000
,
1000
0000
0000
0000
1000
0100
0001
0100
1000
0000
0000
0000
1010
0000
0000
0000
,
0101
0000
0000
0000
1000
0010
0100
0010
1000
0000
0000
0000
1001
0000
0000
0000
,
0110
0000
0000
0000
0000
0000
0010
1000
0100
0010
0001
0100
0000
0000
0000
0000
,
0101
0000
1010
0000
0101
0000
0010
1000
0010
0000
0000
0000
1000
0000
0000
0000
,
1000
0000
0000
0000
0010
0001
1000
0100
0010
0000
0000
0000
1001
0000
0000
0000
,
1100
0000
0000
0000
0000
0000
0000
0000
0000
0000
0000
0000
0000
0000
0000
0000
0020
0000
0000
0000
0000
0000
0000
0000
0230
0000
0000
0000
0000
0000
0000
0002
0300
0000
0000
0000
0000
0000
0000
0000
0000
0000
0003
0000
0000
0000
0000
0000
0000
0000
0000
0000
0000
0000
0000
0000
0000
0000
0000
0000
0000
0000
0000
0000
,
0000
1010
0101
0110
,
1001
0000
1010
0101
0110
1001
1010
0101
,
0011
1010
0101
0110
1001
1010
0101
1010
,
1100
2020
0000
3030
,
0000
0000
0001
0000
1000
0000
0000
0010
0001
0000
0010
0000
2000
0000
0000
0000
,
0002
0000
3003
0000
2020
0000
0000
3030
,
0202
0000
0000
0303
0220
0000
0000
0330
,
1100
0000
2020
0000
0000
3030
0202
0000
,
0000
0303
0220
0000
0000
0330
2020
0000
,
0000
0000
3030
0000
1100
0000
0001
0010
0001
0000
0010
0000
1000
0000
0100
0010
,
0000
0000
0000
0000
0010
1000
0010
0000
0100
0000
1000
0000
0010
0000
0001
0100
,
0000
0000
0000
0000
0010
1000
0010
0000
0001
0000
1000
0000
0010
0000
0100
0001
,
0000
0000
0010
0000
1000
0100
0010
0001
1000
0000
0100
0000
0001
0000
0010
1000
,
0000
0000
0000
0000
0000
0000
0001
0010
0001
0000
0010
1000
0010
0000
0100
0010
,
0000
0000
0000
0000
0010
0000
1000
0100
1000
0000
0001
0010
0001
0000
1000
0010
,
0000
0000
0000
0000
1000
0010
0100
0001
0100
0000
1000
0010
0100
0000
0001
0010
,
0000
0000
1000
0100
1000
0010
0001
0100
0000
0001
0000
1000
0000
0010
0000
0000
,
1000
0000
0100
0000
1000
0000
0001
0010
0001
0000
0000
0000
0001
0000
0000
0000
,
0001
0000
0000
0000
1000
0010
0100
0001
0010
0000
0000
0000
1000
0000
0000
0000
,
1000
0000
0000
0000
0010
0100
0010
1000
0100
0000
0000
0000
1001
0000
0000
0000
,
1100
0000
0000
0000
0000
0000
0010
0000
1000
0100
0001
0010
0100
0000
0000
0000
,
1010
0000
0110
0000
0101
0000
0001
0010
0001
0000
0000
0000
1010
0000
0000
0000
,
0101
0000
0000
0000
0010
1000
0100
0001
0010
0000
0000
0000
1001
0000
0000
0000
,
0110
0000
1100
0110
0011
0000
0000
0000
,
0000
0000
2020
3030
0202
0303
0220
0330
,
2200
3300
0220
0000
0000
0000
0000
0000
,
0000
0000
0000
0330
,
1010
0000
0202
0000
0000
0303
0000
0000
,
0000
0000
1100
0000
0101
0000
0000
1100
0110
0000
0101
0000
1001
0000
0000
0000
,
1010
0000
0000
0000
0001
1000
0100
0010
0100
0001
1000
0000
0000
0000
0000
0000
,
0000
0000
0000
0000
0010
1000
0010
1000
0001
0000
2000
0000
0000
0000
0000
0000
,
3200
0300
0020
0000
0030
0000
0000
0000
,
0000
0000
0010
0000
1000
0000
0000
0010
0001
0000
0100
0000
0010
0000
0000
0000
,
0000
0000
0000
0001
0110
0000
0000
0000
2000
0000
0000
0000
0000
0000
0000
0000
,
0000
0000
3010
0000
0000
0000
0010
0010
,
0010
1000
0010
0100
0001
0010
0001
0100
,
0001
1000
0010
0100
0001
0010
1000
0000
,
1000
0100
1000
0000
0001
0010
0001
0000
0100
0010
0100
0000
1000
0100
1000
0000
,
0100
0001
0100
0000
1000
0100
1000
0000
0001
1000
0001
0000
0010
0100
0010
0000
,
1000
0100
1000
0000
0010
0001
1000
0000
0010
1000
0001
0000
0010
0100
0010
0000
,
1000
0000
0000
0100
0000
0000
1100
0000
0000
0000
0000
0000
0101
0000
0000
0000
0000
0000
0000
0000
0000
0000
0000
0000
1010
0000
0000
0101
0000
0000
0000
0000
1010
0000
0000
0000
0000
0000
0000
0110
0000
0000
0000
0000
0000
0000
0000
0000
,
1000
0000
0000
0010
0000
0000
1000
0000
0000
0000
0001
0000
0000
0000
0100
0000
0000
0000
0000
0000
0000
0000
0000
0000
0000
0000
0000
0000
0000
0000
0000
0000
0000
0000
0000
0000
1010
0000
0000
0000
0000
0000
0000
0000
0000
0000
0000
0000
,
0101
1010
0110
0101
,
1100
0110
0011
0000
1100
0000
0110
0000
,
0101
0000
0000
1010
0101
0000
0000
0010
1000
0000
0100
0000
0001
0000
0000
0000
,
1010
0000
1001
0110
0101
1010
0101
0110
,
1001
0101
0110
1010
0101
0110
1010
0101
,
0011
1100
1010
0101
1010
0101
1010
0101
,
1000
0010
0001
0100
,
0001
1000
0100
0010
,
0000
0000
0000
1000
0000
0100
0010
0001
0010
1000
0000
0000
0001
0100
1000
0100
,
0010
0000
0000
0000
0010
1000
0010
0001
0100
0000
0000
0000
0010
1000
0010
0000
,
0000
1010
0000
0110
0000
2002
0000
0000
,
3003
0000
0000
0000
0010
1000
0000
0000
0000
0000
0000
0000
0000
0000
0000
0000
;

//---------------dance-single - ----------------
#NOTES:
     dance-single:
     :
     Beginner:
     2:
     0.212,0.347,0.183,0.025,0.006,202.000,29.000,4.000,0.000,0.000:
0000
0000
0000
0000
,
0000
0000
0000
0000
,
0000
1000
0000
1000
,
0000
0001
0000
0001
,
0000
0010
0000
0010
,
0000
0100
0000
0100
,
0000
1000
0001
1000
,
0000
0001
1000
0001
,
0000
0100
0010
0100
,
0000
1000
0000
1000
,
0000
1000
1000
1000
,
1001
0001
0001
0001
,
0110
0100
0100
0100
,
0110
0001
0001
0001
,
1001
0010
0000
1000
,
0000
0100
0000
0001
,
0000
0010
0000
1000
,
0000
0010
0000
1000
,
0000
0100
0000
0001
,
0000
0100
0000
0001
,
0000
0010
0000
0100
,
0000
0010
0000
0100
,
0000
1000
0000
0010
,
0000
0001
0000
0100
,
0000
0010
0000
1000
,
0000
0010
1000
0010
,
1000
0010
0000
0000
,
0000
0000
0000
0000
,
1000
1000
0001
0001
,
0010
0010
0100
0100
,
0010
1001
0010
1001
,
0000
0010
1001
0010
,
0000
1000
0100
1000
,
0000
0001
0010
0001
,
0000
1000
0000
0010
,
0000
0100
0000
0001
,
0000
0010
0000
1000
,
0000
0100
0000
0001
,
0000
0010
0000
0100
,
0000
0001
0000
1000
,
0000
0100
0000
0001
,
0000
0010
0000
0100
,
0000
1000
0000
0001
,
0000
0010
0000
0100
,
0000
0001
0000
0100
,
0000
0010
0000
1000
,
1001
1001
0001
0001
,
1001
1001
1000
1000
,
1001
0110
0100
0100
,
0110
1001
0010
0010
,
1000
0100
1000
0100
,
1000
0100
1000
0100
,
1000
0001
0000
0001
,
0000
1000
0000
1000
,
0000
0110
0000
0110
,
0000
1001
0000
1001
,
0000
1010
0000
1010
,
0000
0101
0000
0101
,
0000
1010
1000
1000
,
0000
1001
0001
0001
,
0000
1000
1000
1000
,
0000
0010
0010
0010
,
0000
0100
0100
0100
,
0000
0010
0010
0010
,
0000
0001
0001
0001
,
0000
1000
1000
1000
,
0000
0010
1000
0010
,
0000
0001
0100
0001
,
0000
0100
0010
0100
,
0000
1000
0010
1000
,
0000
0100
0010
0100
,
0000
0001
0100
0001
,
0000
1000
0000
0001
,
0000
1000
0000
0010
,
0100
1001
1001
1001
,
0000
0020
0000
0000
0000
2030
0000
0000
,
0002
0000
3000
0000
0200
0003
0000
0000
,
0000
0000
0300
1000
0000
0000
0001
0000
0000
1000
0000
0000
0000
0000
0000
0000
,
0000
1001
0000
0000
;

//---------------dance-single - ----------------
#NOTES:
     dance-single:
     :
     Easy:
     5:
     0.400,0.446,0.468,0.557,0.016,281.000,74.000,88.000,0.000,4.000:
0000
0000
0000
0000
,
0000
0000
0000
0000
,
0000
0000
2000
3000
0002
0003
2000
3000
,
0002
0003
2000
3000
0002
0003
2000
3000
,
0002
0003
0200
0300
0020
0030
0200
0300
,
0020
0030
0200
0300
0020
0030
0200
0300
,
0020
0030
2000
3000
0200
0300
0020
0030
,
0002
0003
2000
3000
0002
0003
0200
0300
,
0020
0030
0002
0003
2000
3000
0200
0300
,
0002
0003
0020
0000
0000
0000
0230
0000
,
0000
0300
1010
0000
0001
0000
0010
0000
,
0100
0001
1000
0100
,
0010
0001
0100
0010
,
0100
1000
0100
0010
,
0001
0100
2010
3200
,
0310
0001
1100
1000
,
0100
0010
0011
1000
,
1100
0010
0110
1001
,
0110
0002
2003
3002
,
2003
3020
2030
3002
,
0203
0320
2030
3002
,
0203
2300
3020
0230
,
0302
1013
0110
0011
,
1001
1010
0101
0110
,
1001
0011
1100
0110
,
1010
2000
3200
0302
,
0023
2032
0000
0000
,
0000
0000
0000
3003
,
1001
1001
0110
0110
,
1100
1100
0110
0110
,
1001
1000
0000
1000
,
0000
0001
0000
0001
,
0000
0100
0100
0100
,
0000
0010
0010
0010
,
1010
1001
0001
1001
,
1000
0110
0010
0110
,
0100
0011
0001
0011
,
0010
1100
0100
1100
,
1000
1000
0010
0100
,
0002
0013
2000
3100
,
0020
0130
2000
3001
,
0011
0110
1100
0110
,
0011
2000
3200
0302
,
0023
2030
3200
0302
,
0023
0230
0320
2030
,
3020
0230
0302
0023
,
0230
1300
0100
0010
,
0001
0020
0230
2300
,
3200
0320
2030
3202
,
2323
3030
1000
0100
,
0010
2002
0000
0000
,
0000
0000
0000
3003
,
1010
0202
0000
0303
,
0000
1010
1010
1010
,
0000
0011
0011
0011
,
0000
0100
0100
0100
,
0100
0110
0010
0010
,
0010
1100
0100
0011
,
0010
1000
0001
1000
,
0001
0100
0010
0100
,
0010
1000
0100
1000
,
0100
0001
0010
0001
,
0010
0100
0001
0010
,
0100
1000
0100
0001
,
0100
1000
0100
0001
,
0100
1000
0100
0001
,
0100
1100
0100
1100
,
0100
0011
0010
0011
,
0010
0110
0100
0110
,
0100
1010
1000
1010
,
1000
0001
0100
0010
,
0010
1000
0100
0001
,
0001
1000
0010
0010
,
0100
0001
0010
0100
,
1000
1001
1001
1001
,
0000
0000
0000
0010
1000
0000
0000
0000
0000
0010
0001
0000
0000
0000
0000
0000
,
0100
1000
0000
0000
0000
0000
0000
0000
0010
0001
0000
0000
0000
0000
0000
0000
,
1010
1100
0011
0110
,
1010
0000
0000
0000
0010
0100
0000
0000
0000
0000
0000
0000
0000
0000
0000
0000
;

//---------------dance-single - ----------------
#NOTES:
     dance-single:
     :
     Medium:
     6:
     0.465,0.477,0.342,0.316,0.000,411.000,54.000,50.000,0.000,6.000:
0000
0000
0000
0000
,
0000
0000
0000
0000
,
0000
0000
1000
0100
0010
0001
0200
0000
,
0000
0000
0000
0000
,
0300
0000
0010
0000
1000
0100
0001
0000
,
0000
1000
0100
0100
,
0100
0002
0000
0000
,
0000
0000
0000
0000
0003
0010
1000
0100
,
0001
0100
0010
0000
0100
1000
0100
0000
,
0000
0000
0010
0000
1000
0000
0100
0001
,
0100
0001
0100
0000
1000
0100
1000
0100
,
0001
0000
0100
0000
0101
0000
0100
1000
,
0100
0000
1100
0000
0101
0000
0010
0100
,
0010
0000
0110
0000
1100
0000
0101
1100
,
0101
0000
0010
0000
0100
0000
0001
1000
,
0100
0000
1000
0100
1000
0100
0001
0100
,
0001
0010
0100
0001
,
1100
1000
0100
0001
,
0100
0020
0001
0100
,
0001
0030
1200
0000
1000
0300
0200
0000
,
0302
0010
0010
0010
,
0020
2033
0100
0200
,
3302
0010
0200
0000
2303
0000
0100
0000
,
0100
3000
0200
0000
0010
0000
0010
0000
,
2300
0000
3100
0002
0020
0003
0000
0000
,
0000
2030
0200
3302
,
0023
0030
0100
1000
0100
1000
0100
0001
,
0100
0001
0100
0001
0100
1000
0100
1000
,
0010
0000
0100
0000
1000
0100
0001
0100
,
0001
0000
0001
0100
1000
0100
0010
0100
,
0001
0000
1000
0100
1000
0010
0100
0001
,
0100
0001
0010
0001
0100
0001
0010
0100
,
0001
0100
0010
0100
1000
0100
0010
0100
,
0001
0100
1000
0100
0010
0001
0010
0100
,
1000
0000
1001
0000
1010
0000
0100
1000
,
0100
0000
0101
0000
0001
0000
0001
0020
,
0031
0000
0100
0000
1100
0000
0010
1000
,
0010
0000
1100
0000
0101
0000
0010
0100
,
0000
0000
1000
0000
0010
0000
1000
0100
,
1000
0100
0001
0100
0001
0200
0301
0100
,
1000
0100
0001
0100
1000
0100
0001
0100
,
1000
0100
1000
0100
1000
0100
1000
0100
,
2000
3100
2020
0000
3000
0000
1000
0000
,
1000
0030
0201
0000
0001
0000
0001
0300
,
0220
0300
1230
0000
1000
0000
1000
0000
,
1000
0300
0200
0000
0001
0000
0001
0300
,
0001
0100
1000
0000
1010
0000
1010
0000
,
1010
0000
1100
0000
0102
0003
0101
0000
,
0101
0000
0000
2000
3200
0000
0000
0000
,
0000
0000
0302
0000
0020
0030
0200
0000
,
2303
0000
0200
3000
0000
0000
0000
0000
,
0000
0001
0000
0001
,
0001
0300
1010
0000
0200
1300
0100
0000
,
0101
0000
0001
0000
0001
0010
0001
0010
,
0100
1000
0100
1000
0100
0001
0100
2000
,
3100
0001
0100
1000
0100
0001
0100
1000
,
0100
0001
0010
2000
0010
3002
0103
1000
,
0100
0001
0010
0000
1100
0100
0001
0000
,
1100
0010
1100
0010
,
1100
0000
1100
0000
0101
1100
1010
0000
,
1100
0000
0101
1100
0000
0000
0101
0000
,
1100
0000
0101
1100
0000
0000
1100
0000
,
0101
0000
0010
2000
3100
0001
0100
1000
,
0100
0001
0000
0101
1000
0100
0001
0100
,
1000
0000
1010
0010
1000
0010
0100
0001
,
0100
1000
0100
1000
0100
0001
0100
0001
,
0100
0001
0100
1000
0100
1000
0020
1030
,
0010
1000
0100
0001
0100
1000
0100
1000
,
0100
1000
0010
1000
0010
1000
0010
1000
,
0100
0001
0200
0001
0300
1000
0100
1000
,
0010
1000
0020
1000
0030
1000
0100
1000
,
0100
2000
3001
0100
0001
0100
0001
0200
,
1300
0010
1000
0010
1000
0100
0001
0100
,
0001
0100
0001
0100
1000
0100
1000
0100
,
1000
0010
1100
0000
1010
0000
0101
0000
,
0000
0000
0000
0010
1000
0010
0000
0100
,
0101
0000
0010
1000
0010
0000
0101
0100
,
0000
0010
0000
1000
0000
0100
0000
0000
,
0000
2002
0000
0000
,
0000
0000
0000
3003
0000
0000
0000
0000
;

//---------------dance-single - ----------------
#NOTES:
     dance-single:
     :
     Edit:
     1:
     0.512,0.866,0.044,0.038,0.867,554.000,7.000,6.000,0.000,0.000:
0000
0000
0000
0000
,
0000
0000
0000
0000
,
0000
0000
0000
0000
,
0000
0000
0000
0000
,
0000
0000
0000
0000
,
0000
0000
0000
0000
,
0000
0000
0000
0000
,
0000
0000
0000
0000
,
0000
0000
0000
0000
,
0000
0000
0000
0000
,
0000
0000
0000
0000
,
0000
0000
0000
0000
,
0000
0000
0000
0000
,
0000
0000
0000
0000
,
0000
0000
0000
0000
,
0000
0000
0000
0000
,
0000
0000
0000
0000
,
0000
0000
0000
0000
,
0000
0000
0000
0000
,
0000
0000
0000
0000
,
0000
0000
0000
0000
,
0000
0000
0000
0000
,
0000
0000
0000
0000
,
0000
0000
0000
0000
,
0000
0000
0000
0000
,
0000
0000
0000
0000
,
0000
0000
0000
0000
1000
0100
1000
0100
0001
0010
0001
0010
0100
0010
0100
0010
,
1000
0100
1000
0100
1000
0100
0001
0010
1000
0010
0001
0010
0100
1000
0100
0010
,
0100
0010
0100
0010
0100
0010
0100
1000
0100
0010
0001
0010
0100
1000
0100
0010
,
0100
0010
0100
0001
0010
0001
0010
1000
0100
1000
0100
0010
0001
0100
0010
1000
,
0010
0100
0001
0010
0100
0001
0100
0010
1000
0100
0010
0001
0100
0010
1000
0100
,
0010
0001
0100
0001
0010
1000
0100
0010
0001
0100
0010
1000
0100
0001
0010
0100
,
0001
1000
0010
0100
0001
1000
0010
0100
0001
0010
0100
0000
1000
0100
0001
0010
,
0100
0001
1000
0010
0100
0001
0010
0100
0010
1000
0001
0100
0010
0100
0010
0100
,
0010
0100
0010
0000
1001
0000
0000
0000
0000
0000
0000
0000
0000
0000
0000
0000
,
0000
0000
0000
0000
,
0000
0000
0000
0000
,
0000
0000
0000
0000
,
0000
0000
0000
0000
,
0000
0000
0000
0000
,
0000
0000
0000
0000
,
0000
0000
0000
0000
,
0000
0000
0000
0000
,
0000
0000
0000
0000
,
0000
0000
0000
0000
,
0000
0000
0000
0000
,
0000
0000
0000
0000
,
0000
0000
0000
0000
,
0000
0000
0000
0000
,
0000
0000
0000
0000
,
0000
0000
0000
0000
1000
0100
1000
0100
1000
0100
1000
0100
1000
0100
1000
0100
,
1000
0100
1000
0100
1000
0100
1000
0100
1000
0100
0001
0010
0001
0010
0100
0010
,
0100
0010
0100
0010
0100
0010
0100
0010
0100
0010
0100
0010
0100
0010
0100
0010
,
0100
0010
0100
0010
1000
0100
1000
0100
0010
0001
0100
1000
0010
0100
0001
0010
,
0100
1000
0001
0100
0010
0100
0010
1000
0001
0100
0010
0001
1000
0010
0100
0001
,
0010
0100
0001
1000
0010
0100
0001
0100
0010
1000
0100
0010
0001
0100
0010
1000
,
0010
0100
0001
0010
0001
0100
0010
0120
1030
0010
0001
0010
0100
1000
0100
0010
,
0001
0100
0010
1000
0100
0010
0001
0100
0010
1000
0001
0100
0010
1000
0001
0100
,
0010
2001
3100
0010
0001
0100
0010
1000
0001
0100
0010
0001
1000
0010
0100
0001
,
1000
0010
0100
0010
0001
0010
0100
1000
0010
0100
0001
0010
0100
0001
1000
0010
,
0100
0010
0001
0010
0100
1000
0010
0100
0001
0010
0100
0001
1000
0010
0100
0001
,
0010
1000
0001
1000
0100
0010
0001
0100
1000
0001
0010
1000
0100
0010
0001
1000
,
0010
0100
0010
0100
0001
0010
0100
1000
0010
0100
0010
0001
1000
0010
0100
0010
,
1000
0001
0100
0010
1000
0100
1000
0010
0100
0010
1000
0001
0100
0010
0100
0001
,
0100
0010
0100
0001
0100
0010
0100
0001
0100
0010
0100
0100
1000
0010
1000
0100
,
0010
0001
0010
0100
1000
0100
1000
0010
0100
0010
0001
0100
0010
0001
0010
0100
,
0001
1000
0010
0100
0001
0010
0100
0001
1000
0100
0010
0100
0010
0001
0010
0100
,
1000
0100
0010
0001
0010
0100
1000
0010
0100
0001
0010
0100
1000
0001
0100
0010
,
0100
1000
0010
0001
0100
0010
0100
0001
1010
0100
0010
0001
0010
0200
1300
0100
,
0010
0001
0010
0100
1000
0001
0100
0010
1000
0010
0100
0001
0010
0100
1000
0100
,
0010
0001
0010
0100
2000
3200
0301
0100
0010
0100
0001
1000
0010
0100
0001
0010
,
0100
1000
0100
0010
0001
0100
0010
1000
0010
0100
0001
0010
0100
1000
0010
0100
,
0001
0010
0100
1000
0001
0200
0310
1000
0100
0001
0010
0100
1000
0010
0100
0001
,
0010
0100
1000
0010
0100
0001
0010
0100
1000
0010
0100
0010
0001
1000
0100
0010
,
0001
0010
0100
0000
1000
0100
0000
0000
0001
0010
0000
0000
0010
1000
0010
1000
,
0000
0000
0000
1000
0100
0010
0001
0010
0100
1000
0100
0010
0001
0010
0100
1000
,
0100
0010
0001
0010
0100
1000
0100
0010
0001
0010
0100
1000
0100
0010
0001
0010
,
0100
1000
1001
0000
0000
0000
0110
0000
0000
0000
1010
0000
0000
0000
0000
0000
,
0000
0000
0000
0010
1000
0000
0000
0000
0000
0000
0000
0000
0000
0000
0000
0000
;
